Jump to content
DirtyWarez Topsite

Recommended Posts

302427-escape-plan-TwcRY.jpg

0Ll2AKw.png

Genres: Action Thriller Crime Mystery Sci-Fi
Cast: 	Arnold Schwarzenegger 50 Cent Vincent D'Onofrio Sylvester Stallone
Crew: 	Miles Chapman Jason Keller Mikael Håfström

Ray Breslin is a man who has devoted his life to making prisons inescapable by going into a prison as an inmate and trying to
see if he can break out. And he has done a good job so far. A woman who says she works for the CIA approaches Ray and says that 
a new maximum security prison where the worst criminals are to be incarcerated, is about to be launched. So she wants him to go 
and make sure no one can get out. He agrees. So they make the necessary preps but when Ray arrives at the prison, he discovers 
that someone doesn't want him to get out. He then tries to find a way out but he needs help. Another prisoner, Rottmeyer 
becomes friendly with him. And they decide to work together to get out.

 

Escape Plan 2013 2160p UHD BluRay TrueHD Atmos 7 1 DV x265-W4NK3R

Format                                   : Matroska
Format version                           : Version 4 / Version 2
File size                                : 17.9 GiB
Duration                                 : 1 h 55 min
Overall bit rate mode                    : Variable
Overall bit rate                         : 22.2 Mb/s
Movie name                               : Escape.Plan.2013.2160p.UHD.BluRay.ATMOS.DV.x265-W4NK3R
Encoded date                             : UTC 2021-10-17 09:28:40
Writing application                      : mkvmerge v62.0.0 ('Apollo') 64-bit
Writing library                          : libebml v1.4.2 + libmatroska v1.6.4

Video
ID                                       : 1
Format                                   : HEVC
Format/Info                              : High Efficiency Video Coding
Format profile                           : Main 10@L5.1@High
Codec ID                                 : V_MPEGH/ISO/HEVC
Duration                                 : 1 h 55 min
Bit rate                                 : 16.6 Mb/s
Width                                    : 3 840 pixels
Height                                   : 1 600 pixels
Display aspect ratio                     : 2.40:1
Frame rate mode                          : Constant
Frame rate                               : 23.976 (24000/1001) FPS
Color space                              : YUV
Chroma subsampling                       : 4:2:0 (Type 2)
Bit depth                                : 10 bits
Bits/(Pixel*Frame)                       : 0.113
Stream size                              : 13.4 GiB (75%)
Title                                    : Escape.Plan.2013.2160p.UHD.BluRay.ATMOS.DV.x265-W4NK3R
Writing library                          : x265 3.5+13-4c6880de4:[Windows][GCC 11.2.0][64 bit] 10bit
Language                                 : English
Default                                  : Yes
Forced                                   : No
Color range                              : Limited
Color primaries                          : BT.2020
Transfer characteristics                 : PQ
Matrix coefficients                      : BT.2020 non-constant
Mastering display color primaries        : Display P3
Mastering display luminance              : min: 0.0050 cd/m2, max: 1000 cd/m2
Maximum Content Light Level              : 703 cd/m2
Maximum Frame-Average Light Level        : 360 cd/m2

Audio #1
ID                                       : 2
Format                                   : TrueHD
Format profile                           : TrueHD+Atmos / TrueHD
Codec ID                                 : A_TRUEHD
Duration                                 : 1 h 55 min
Bit rate mode                            : Variable
Bit rate                                 : 4 755 kb/s
Maximum bit rate                         : 7 860 kb/s
Channel(s)                               : Object Based / 8 channels
Channel positions                        : Object Based / Front: L C R, Side: L R, Back: L R, LFE
Sampling rate                            :  / 48.0 kHz
Frame rate                               : 1 200.000 FPS (40 SPF)
Compression mode                         : Lossless
Stream size                              : 3.84 GiB (21%)
Language                                 : English
Default                                  : Yes
Forced                                   : No

Audio #2
ID                                       : 3
Format                                   : AC-3
Format/Info                              : Audio Coding 3
Codec ID                                 : A_AC3
Duration                                 : 1 h 55 min
Bit rate mode                            : Constant
Bit rate                                 : 448 kb/s
Channel(s)                               : 6 channels
Channel positions                        : Front: L C R, Side: L R, LFE
Sampling rate                            : 48.0 kHz
Frame rate                               : 31.250 FPS (1536 SPF)
Bit depth                                : 16 bits
Compression mode                         : Lossy
Stream size                              : 370 MiB (2%)
Language                                 : English
Service kind                             : Complete Main
Default                                  : No
Forced                                   : No

Audio #3
ID                                       : 4
Format                                   : AC-3
Format/Info                              : Audio Coding 3
Codec ID                                 : A_AC3
Duration                                 : 1 h 55 min
Bit rate mode                            : Constant
Bit rate                                 : 224 kb/s
Channel(s)                               : 2 channels
Channel positions                        : Front: L R
Sampling rate                            : 48.0 kHz
Frame rate                               : 31.250 FPS (1536 SPF)
Bit depth                                : 16 bits
Compression mode                         : Lossy
Stream size                              : 185 MiB (1%)
Title                                    : Commentary with Mikael Hafstrom and Miles Chapman
Language                                 : English
Service kind                             : Complete Main
Default                                  : No
Forced                                   : No

Text #1
ID                                       : 5
Format                                   : PGS
Muxing mode                              : zlib
Codec ID                                 : S_HDMV/PGS
Codec ID/Info                            : Picture based subtitle format used on BDs/HD-DVDs
Duration                                 : 1 h 45 min
Bit rate                                 : 27.3 kb/s
Count of elements                        : 2052
Stream size                              : 20.7 MiB (0%)
Language                                 : English
Default                                  : No
Forced                                   : No

Text #2
ID                                       : 6
Format                                   : PGS
Muxing mode                              : zlib
Codec ID                                 : S_HDMV/PGS
Codec ID/Info                            : Picture based subtitle format used on BDs/HD-DVDs
Duration                                 : 1 h 46 min
Bit rate                                 : 30.8 kb/s
Count of elements                        : 2532
Stream size                              : 23.5 MiB (0%)
Language                                 : English
Default                                  : No
Forced                                   : No

Text #3
ID                                       : 7
Format                                   : PGS
Muxing mode                              : zlib
Codec ID                                 : S_HDMV/PGS
Codec ID/Info                            : Picture based subtitle format used on BDs/HD-DVDs
Duration                                 : 1 h 55 min
Bit rate                                 : 21.0 kb/s
Count of elements                        : 2004
Stream size                              : 17.3 MiB (0%)
Language                                 : Czech
Default                                  : No
Forced                                   : No

Text #4
ID                                       : 8
Format                                   : PGS
Muxing mode                              : zlib
Codec ID                                 : S_HDMV/PGS
Codec ID/Info                            : Picture based subtitle format used on BDs/HD-DVDs
Duration                                 : 1 h 46 min
Bit rate                                 : 30.5 kb/s
Count of elements                        : 1772
Stream size                              : 23.3 MiB (0%)
Language                                 : Danish
Default                                  : No
Forced                                   : No

Text #5
ID                                       : 9
Format                                   : PGS
Muxing mode                              : zlib
Codec ID                                 : S_HDMV/PGS
Codec ID/Info                            : Picture based subtitle format used on BDs/HD-DVDs
Duration                                 : 1 h 46 min
Bit rate                                 : 23.8 kb/s
Count of elements                        : 1780
Stream size                              : 18.2 MiB (0%)
Language                                 : Dutch
Default                                  : No
Forced                                   : No

Text #6
ID                                       : 10
Format                                   : PGS
Muxing mode                              : zlib
Codec ID                                 : S_HDMV/PGS
Codec ID/Info                            : Picture based subtitle format used on BDs/HD-DVDs
Duration                                 : 1 h 46 min
Bit rate                                 : 25.1 kb/s
Count of elements                        : 1770
Stream size                              : 19.2 MiB (0%)
Language                                 : Finnish
Default                                  : No
Forced                                   : No

Text #7
ID                                       : 11
Format                                   : PGS
Muxing mode                              : zlib
Codec ID                                 : S_HDMV/PGS
Codec ID/Info                            : Picture based subtitle format used on BDs/HD-DVDs
Duration                                 : 1 h 49 min
Bit rate                                 : 23.8 kb/s
Count of elements                        : 1870
Stream size                              : 18.6 MiB (0%)
Language                                 : Hungarian
Default                                  : No
Forced                                   : No

Text #8
ID                                       : 12
Format                                   : PGS
Muxing mode                              : zlib
Codec ID                                 : S_HDMV/PGS
Codec ID/Info                            : Picture based subtitle format used on BDs/HD-DVDs
Duration                                 : 1 h 46 min
Bit rate                                 : 20.6 kb/s
Count of elements                        : 2080
Stream size                              : 15.7 MiB (0%)
Language                                 : Japanese
Default                                  : No
Forced                                   : No

Text #9
ID                                       : 13
Format                                   : PGS
Muxing mode                              : zlib
Codec ID                                 : S_HDMV/PGS
Codec ID/Info                            : Picture based subtitle format used on BDs/HD-DVDs
Duration                                 : 1 h 46 min
Bit rate                                 : 28.2 kb/s
Count of elements                        : 1778
Stream size                              : 21.5 MiB (0%)
Language                                 : Norwegian
Default                                  : No
Forced                                   : No

Text #10
ID                                       : 14
Format                                   : PGS
Muxing mode                              : zlib
Codec ID                                 : S_HDMV/PGS
Codec ID/Info                            : Picture based subtitle format used on BDs/HD-DVDs
Duration                                 : 1 h 48 min
Bit rate                                 : 20.2 kb/s
Count of elements                        : 1580
Stream size                              : 15.7 MiB (0%)
Language                                 : Polish

Code:

https://rapidgator.net/file/3f9fbfb0fab7f8d6b9d8dbe481016e59/Escape.Plan.2013.2160p.UHD.BluRay.TrueHD.Atmos.7.1.DV.x265-W4NK3R.part1.rar.html
https://rapidgator.net/file/8919ea23edcb9f483115db666d1971c3/Escape.Plan.2013.2160p.UHD.BluRay.TrueHD.Atmos.7.1.DV.x265-W4NK3R.part2.rar.html
https://rapidgator.net/file/251a1b8a66ee8cd38aa3f768f9e96f5f/Escape.Plan.2013.2160p.UHD.BluRay.TrueHD.Atmos.7.1.DV.x265-W4NK3R.part3.rar.html
https://rapidgator.net/file/681a4ab323bd02324957d29bfea8ef58/Escape.Plan.2013.2160p.UHD.BluRay.TrueHD.Atmos.7.1.DV.x265-W4NK3R.part4.rar.html
https://rapidgator.net/file/3354e1be570726f47a3c2758e3681b33/Escape.Plan.2013.2160p.UHD.BluRay.TrueHD.Atmos.7.1.DV.x265-W4NK3R.part5.rar.html
 

[Image: XMLdeFm.gif%26key=e2dd53cfd71818fa1bb03b...1395dd9bac]
Also Click on that Reputation if you like the post and if I find dead links in your posts. Thank You

Link to comment
Share on other sites

  • Replies 0
  • Created
  • Last Reply

Top Posters In This Topic

Popular Days

Top Posters In This Topic

Create an account or sign in to comment

You need to be a member in order to leave a comment

Create an account

Sign up for a new account in our community. It's easy!

Register a new account

Sign in

Already have an account? Sign in here.

Sign In Now
 Share

  • Similar Content

    • By Grim Reaper
      Subtitles: Opensubtiles



      Genres: Action Adventure Thriller Cast: Rami Malek Ana de Armas Daniel Craig Crew: Cary Joji Fukunaga Neal Purvis Robert Wade Bond has left active service and is enjoying a tranquil life in Jamaica. His peace is short-lived when his old friend Felix Leiter from the CIA turns up asking for help. The mission to rescue a kidnapped scientist turns out to be far more treacherous than expected, leading Bond onto the trail of a mysterious villain armed with dangerous new technology. Release Name ....: No Time To Die 2021 720p AMZN WEBRip AAC2 0 X 264-EVO Runtime .........: 02:43:23 File Size .......: 1.4 GB Format ..........: mkv Video ...........: V_MPEG4/ISO/AVC | 1100 Kbps | 1280x532 (2.40:1) | 23.976 fps Audio ...........: AAC | 128 Kbps | 2 channels | 48 Khz | English Compressed Files.: mkv ( 1 files ) https://rapidgator.net/file/e366469555d5c6282ec265a749191591/No.Time.To.Die.2021.720p.AMZN.WEBRip.AAC2.0.X.264-EVO.rar https://clicknupload.cc/4kv60h44fn1j/No.Time.To.Die.2021.720p.AMZN.WEBRip.AAC2.0.X.264-EVO.rar Release: No Time To Die 2021 REPACK HDRip XviD AC3-EVO General: avi | 1.68 GB | 02:43:23 Video: 1100 Kbps | 720×300 (2.40:1) | 23.976 fps | V_MPEG4/ISO/AVC Audio 1: AC-3 at 384 Kbps | 6 channels | 48 Khz | (English) Files inside archive: txt, avi (total 2 files) https://rapidgator.net/file/29b05a7a89c87c0daff0b48063540266/No.Time.To.Die.2021.REPACK.HDRip.XviD.AC3-EVO.rar  
      Release: No Time To Die 2021 WEBRip x264-ION10 General: mp4 | 1.55 GB | 02:43:23 Video: 1100 Kbps | 720×300 (2.40:1) | 23.976 fps | avc1 Audio 1: AAC at 256 Kbps | 2 channels | 48 Khz | (English) Files inside archive: mp4, txt, srt (total 8 files) https://rapidgator.net/file/96919fce28d4902a87baa0094943b4a3/No.Time.To.Die.2021.WEBRip.x264-ION10.rar Release: No Time To Die 2021 720p AMZN WEBRip AAC2 0 X 264-EVO General: mkv | 1.4 GB | 02:43:23 Video: 1100 Kbps | 1280×532 (2.40:1) | 23.976 fps | V_MPEG4/ISO/AVC Audio 1: AAC at 128 Kbps | 2 channels | 48 Khz | (English) Files inside archive: txt, mkv (total 2 files) https://rapidgator.net/file/4b9411a02ef7208cf6cef23646af40bb/No.Time.To.Die.2021.720p.AMZN.WEBRip.AAC2.0.X.264-EVO.rar Release: No Time To Die 2021 1080p AMZN WEBRip DD5 1 X 264-EVO General: mkv | 2.95 GB | 02:43:23 Video: 2200 Kbps | 1920×800 (2.40:1) | 23.976 fps | V_MPEG4/ISO/AVC Audio 1: AC-3 at 384 Kbps | 6 channels | 48 Khz | (English) Files inside archive: txt, mkv (total 2 files) https://rapidgator.net/file/4ebf797e410ecc004d8c33e8d26b2070/No.Time.To.Die.2021.1080p.AMZN.WEBRip.DD5.1.X.264-EVO.rar  
    • By Grim Reaper
      Genres: Adventure Comedy Fantasy Family Cast: Oliver Hudson Kurt Russell Judah Lewis Darby Camp Crew: Clay Kaytis Matt Lieberman David Guggenheim The story of sister and brother, Kate and Teddy Pierce, whose Christmas Eve plan to catch Santa Claus on camera turns into an unexpected journey that most kids could only dream about. https://v2.vidsrc.me/embed/tt2990140
      https://databasegdriveplayer.co/player.php?imdb=tt2990140
      https://mixdrop.co/f/9n8rw3e0td3j4
      https://mixdrop.co/f/1skkg784
      https://mixdrop.co/f/lcpm6nqx
      https://streamtape.com/v/LqGYoj4Jg9IRYYo
    • By Grim Reaper
      Genres: Adventure Comedy Fantasy Family Cast: Darby Camp Joshua Blumhagen Jahzir Bruno Milaina Chanel Crew: Chris Columbus Matt Lieberman David Guggenheim Kate Pierce, now a cynical teen, is unexpectedly reunited with Santa Claus when a mysterious troublemaker threatens to cancel Christmas - forever. https://v2.vidsrc.me/embed/tt11057644
      https://databasegdriveplayer.co/player.php?imdb=tt11057644
      https://mixdrop.co/f/j9gk1dxqfwve6o
      https://mixdrop.co/f/0vwvmlk4skkqrr0
      https://mixdrop.co/f/rw4ple6qir16x0
      https://mixdrop.co/f/j9m9wx8oiwwdnq
       
       
       
    • By HorrorFan
      Birds go berserk and turn against mankind.

      The Birds II Land's End mp4
      https://watchsb.com/zto9ug3sgnkg.html
      https://mixdrop.co/f/9n0vwevxa8edo4
      https://mixdrop.co/f/n0rn3wzpup1mdm
      https://streamtape.com/v/aqmzkxMPvwTx6xO/The_Birds_II_Land's_End.mp4
      https://userload.co/f/aadcee0d7af8/The_Birds_II_Lands_End.mp4
       
       
    • By HorrorFan
      A wealthy San Francisco socialite pursues a potential boyfriend to a small Northern California town that slowly takes a turn for the bizarre when birds of all kinds suddenly begin to attack people.

      The.Birds.1963.HDTV.
      https://mixdrop.co/f/4nxkelwrtq4m90w
      https://voe.sx/k3whbsnnqswd
      https://mixdrop.co/f/3nrzow87t7j06p
      https://watchsb.com/46z5p0qomwck.html
      https://streamtape.com/v/MPX6X1ZKwbcYqm/The_Birds.mp4
      https://userload.co/f/261f7fbb764d/The.Birds.1963.HDTV.mp4
       
       

×
×
  • Create New...